<?xml version="1.0" standalone="no"?>
<!DOCTYPE svg PUBLIC "-//W3C//DTD SVG 1.1//EN" "http://www.w3.org/Graphics/SVG/1.1/DTD/svg11.dtd" >
<svg xmlns="http://www.w3.org/2000/svg">
<metadata></metadata>
<defs>
<font id="gooddog_plainregular" horiz-adv-x="378" >
<font-face units-per-em="2048" ascent="1638" descent="-410" />
<missing-glyph horiz-adv-x="500" />
<glyph horiz-adv-x="2048" />
<glyph horiz-adv-x="2048" />
<glyph unicode="&#xd;" />
<glyph unicode=" " />
<glyph unicode="!" horiz-adv-x="473" d="M35 164q0 43 32.5 72.5t77.5 29.5q37 0 66 -20q14 -10 41 -10q-4 -27 5 -76t9 -66q0 -51 -45 -76q-33 -20 -61 -20q-90 0 -125 166zM127 422q0 20 8 59q10 47 10 60q57 442 150 712q20 57 88 58q37 0 64.5 -19.5t23.5 -48.5q-12 -156 -84 -440q-80 -311 -98 -447 q0 -35 -35 -34q-25 0 -72 18q-55 20 -55 82z" />
<glyph unicode="&#x22;" horiz-adv-x="600" d="M55 1094q-2 78 4 133q2 31 28 53.5t52 22.5q23 0 37 -19q59 -80 60 -199q0 -55 -17.5 -169.5t-17.5 -170.5q0 -25 -56 -24q-49 0 -61 33q-25 70 -25 207q0 2 -4 133zM432 952q0 178 27 291q4 25 36.5 46.5t61.5 21.5q31 0 33 -27q10 -59 10 -127q0 -25 -35 -379 q-8 -27 -59 -26q-41 0 -57 26q-17 39 -17 174z" />
<glyph unicode="#" horiz-adv-x="1005" d="M27 383q0 47 75 78q61 23 123 45q-8 14 -8 35q0 18 7 53t7 49q0 35 -36 35q-8 0 -22.5 -22.5t-27.5 -22.5q-6 0 -12 4q-39 14 -49 18q-29 12 -41 33q-18 57 10 100q20 20 99 58q66 31 86 61.5t18 102.5q-4 96 -2 112q14 76 92 76q61 0 100 -45q18 -23 19 -55 q0 -23 -13.5 -71t-13.5 -69q0 -31 20.5 -49t61.5 -18q92 0 139 59q41 41 58.5 158t52.5 156q31 47 74 47q20 0 37 -17q6 -4 53 -22q29 -10 29 -29q4 -39 -33 -108q-39 -76 -39 -105t20 -49q35 -20 90 -72q8 -14 3 -39q-6 -25 -21 -30q-47 -10 -133 -41q-33 -18 -33 -70 q0 -10 2 -33v-32q0 -43 -18 -68q12 -6 19 -21.5t11 -17.5q125 -23 125 -86q0 -16 -14 -37q-20 -27 -75.5 -29t-65.5 -20q-18 -35 -19 -82q0 -29 8.5 -84t8.5 -82q0 -33 -10.5 -55.5t-30.5 -22.5q-37 0 -99 64q-33 31 -39 102.5t-12 139.5q0 20 -28 20q-23 0 -40 -9t-40 -9 q-10 0 -27.5 2t-23.5 2q-35 0 -42.5 -27t-7.5 -59q0 -37 13.5 -106.5t13.5 -102.5q0 -76 -43 -76q-29 0 -63.5 22.5t-45.5 49.5q-14 39 -28.5 123t-29.5 116.5t-85 12t-87 9t-17 50.5zM393 610q0 -53 43 -84q6 -6 15 -6q8 0 41 10q27 11 47 7q10 -4 20 -5q76 0 76 146 q0 37 -6 80q-27 -6 -72 -6q-55 2 -72 0q-43 -4 -59 -33q-33 -61 -33 -109z" />
<glyph unicode="$" horiz-adv-x="624" d="M33 324q0 27 25.5 46t52.5 19q27 4 66.5 -29.5t47.5 -33.5t13 6q39 53 38 160q0 162 3 170q-225 86 -226 239q0 37 25 49q88 109 272 152q53 18 53 31q0 4 -3 15t-3 21q0 18 9 43q16 31 49 31q18 0 24 -14q16 -29 17 -45q0 -6 -6.5 -20.5t-6.5 -30.5q0 -12 4.5 -31 t73.5 -49q63 -29 64 -56q0 -43 -52 -43q-4 0 -57 9q-37 6 -53 -5q-53 -33 -53 -116q0 -51 20 -84q14 -23 94 -80q68 -45 74 -96q20 -129 -23 -234q-18 -41 -92 -78q-80 -41 -101.5 -73.5t-21.5 -59.5q0 -10 5.5 -28.5t5.5 -28.5q0 -29 -37 -70q-6 -10 -23 -10 q-16 0 -32.5 11.5t-16.5 23.5q-4 27 -4 45t3 35.5t3 23.5q0 20 -18 58q-12 25 -78 39q-76 18 -105.5 40.5t-29.5 47.5zM203 862q0 -23 20.5 -43t38.5 -20q45 -6 45 57q0 16 -8 49q-8 41 -18 41q-4 0 -16.5 -12t-18.5 -16q-43 -20 -43 -56zM371 375q0 -10 12 -19 q27 -6 53.5 3.5t26.5 37.5q4 16 4 41q0 119 -49 119q-10 0 -21 -8q-14 -16 -14 -127q0 -10 -6 -25.5t-6 -21.5z" />
<glyph unicode="%" horiz-adv-x="1269" d="M18 942q0 86 70 135q139 98 234 99q43 0 84 -19q59 -29 96 -93.5t37 -137.5q0 -70 -35 -125q-43 -68 -146 -68q-51 1 -112 19q-82 25 -105 32q-51 23 -82 56q-41 45 -41 102zM217 930q-6 -35 20.5 -56.5t63.5 -21.5q33 0 55 18q16 14 23 31q2 10 0 29q-4 25 -4 26.5 t-29 32.5q-16 2 -35 2q-84 0 -94 -61zM279 117q0 41 18 96q19 49 37 96q63 193 231 418q147 195 297 391q35 47 68 47q20 0 51 -18q16 -16 18 -49t-6 -51q-59 -125 -313 -490q-215 -307 -279 -526q-45 -6 -59 -6q-53 0 -63 92zM651 215q1 39 15 76q10 29 38.5 68.5 t36.5 54.5q37 18 103 73q37 39 139 39q98 -16 170 -94t66 -178q-90 -72 -179 -143q-111 -84 -198 -84q-47 0 -92 20q-98 45 -99 168zM848 205q0 -39 26 -39q6 0 17 4q45 27 90 55q53 37 53 68q0 20 -16.5 37.5t-36.5 17.5q-43 0 -88 -50t-45 -93z" />
<glyph unicode="&#x26;" horiz-adv-x="567" d="M33 481q0 35 50 85t48 89q-29 127 -29 154q0 39 13 68q31 49 92 100q25 12 102 14q61 0 74 31q16 39 18 73.5t4.5 69.5t22.5 78q18 27 61 27q84 0 78 -64q-4 -47 -28 -172q-14 -80 -10 -171t-62 -124q-20 -16 -49 -16q-39 0 -58 31q-8 8 -8 43q2 41 0 49q-8 23 -35 22 q-33 0 -49 -22q-23 -25 -22 -62q0 -47 30.5 -92t75.5 -61q16 -4 21 -31q2 -25 -4 -37q-20 -37 -68 -49q-16 -4 -94 -12q-14 -16 -14 -31q10 -27 38.5 -44t36.5 -9q74 35 144 35q68 0 67 -43q0 -10 -4 -23q-6 -20 -67 -158q-35 -80 -33 -166q2 -27 -27 -50t-61 -23 q-10 0 -19 4q-37 0 -53 53q0 49 22.5 108.5t22.5 108.5q-4 25 -53 33q-61 8 -76 20q-63 51 -92 132q-6 16 -6 32z" />
<glyph unicode="'" horiz-adv-x="247" d="M61 997q0 33 33 252q8 61 84 62q66 0 66 -54q4 -25 4 -53q0 -43 -12 -119q-15 -87 -17 -118q-2 -20 4 -59.5t6 -53.5q0 -25 -10 -39q-20 -29 -63 -29q-20 0 -29 13q-66 76 -66 198z" />
<glyph unicode="(" horiz-adv-x="677" d="M20 621q0 72 13 143q0 16 10 49q16 49 18 59q119 238 476 424q20 14 43 15q33 0 65.5 -34t32.5 -65q0 -14 -12 -24q-47 -41 -181 -133q-119 -82 -176 -144q-90 -92 -90 -241q0 -68 21 -174q25 -133 39 -179q31 -98 90 -157q6 -4 18 -4q10 0 30.5 5t28.5 5 q16 0 22.5 -15.5t6.5 -35.5q0 -47 -37 -74q-84 -41 -121 -41q-10 0 -18 2q-35 4 -88 29q-190 291 -191 590z" />
<glyph unicode=")" horiz-adv-x="638" d="M23 55q2 27 12 45q41 43 149 129q102 82 146 133q72 82 88 173q8 41 8 81q0 276 -270 523q-25 23 -25 51q0 39 35 74t80 47q41 10 82 -11q160 -172 282 -524q29 -84 29 -158q0 -76 -29 -145q-98 -238 -444 -455q-31 -18 -64 -18q-29 0 -67 18q-14 8 -12 37z" />
<glyph unicode="*" horiz-adv-x="851" d="M16 774q0 14 15 29q33 47 123 74q109 31 141 57q-61 88 -205 156q-8 4 -8 45q0 27 23.5 50t52.5 23q14 0 26 -8q68 -47 207 -147q2 -2 4 -2q4 0 6 20.5t5 26.5q16 68 30 135q22 78 88 78q23 0 46.5 -14.5t23.5 -36.5q0 -6 -4 -15q-45 -129 -66 -244q23 -4 45 -4 q16 0 183 33q16 6 32 6q68 0 68 -51q0 -23 -18 -43q-39 -45 -129 -53q-111 -12 -144 -29q41 -47 258 -264q0 -14 -14 -29q-49 -25 -105 0q-53 23 -114 80q-53 51 -107 105q-33 -98 -65 -195q-41 -113 -97 -174q-18 -20 -57 -21q-49 0 -39 41q10 59 68 201q51 121 51 199 q-117 -23 -221 -74q-16 -6 -37 -6q-20 0 -37 6q-29 20 -29 45z" />
<glyph unicode="+" horiz-adv-x="661" d="M27 610q0 31 34 43q117 43 215 54q11 1 11 36q0 31 -20.5 88.5t-20.5 83.5q0 39 30 70q39 29 113 29q66 -12 66 -58q6 -23 6 -104q0 -66 22 -94q10 -16 43 -17q10 0 34 2t36 2q29 0 47 -10q35 -27 19 -65q-39 -37 -150 -52q-12 -6 -23 -12q-16 -8 -16 -18q0 -27 8 -82 t8 -82q0 -31 -7 -56.5t-50 -25.5q-35 0 -51 18q-43 29 -59 101q-18 82 -35 104.5t-54 22.5q-18 0 -66 -8.5t-75 -8.5q-16 0 -31 2q-35 10 -34 37z" />
<glyph unicode="," horiz-adv-x="299" d="M59 166q-8 76 37 117q39 37 101 36q102 0 102 -94q0 -98 -41 -233q-45 -143 -92 -170q-14 -8 -29 -8q-49 0 -65 143q-6 104 -13 209z" />
<glyph unicode="-" horiz-adv-x="735" d="M47 543q-8 51 28 88t87 37q61 0 184 -10.5t184 -10.5q78 0 146 10q39 20 57 -18q2 -12 2 -23q0 -43 -41 -69q-10 -6 -76 -31q-129 -37 -262 -37q-135 0 -272 37q-35 8 -37 27z" />
<glyph unicode="." horiz-adv-x="325" d="M61 166q-10 76 35 117q39 37 101 36q51 1 86 -24q43 -31 43 -125q0 -104 -62 -141q-35 -18 -67 -19q-53 0 -91 47t-45 109z" />
<glyph unicode="/" horiz-adv-x="784" d="M2 86q39 186 156 414q106 194 215 389l114 254q90 164 203 164q39 0 66.5 -21.5t27.5 -56.5q0 -25 -14 -51q-152 -262 -301 -523q-170 -309 -252 -555q-14 -57 -96 -94q-20 -10 -43 -10q-37 0 -60.5 26.5t-15.5 63.5z" />
<glyph unicode="0" horiz-adv-x="890" d="M41 522q0 184 159.5 345t344.5 161q150 0 260 -143q86 -109 86 -244q0 -233 -215 -448q-127 -125 -262 -125q-70 0 -129 34q-111 66 -177.5 179.5t-66.5 240.5zM281 565q-10 -82 27.5 -154.5t109.5 -103.5q18 -10 41 -10q57 0 110 76q100 137 101 235q0 51 -27 94 q-55 88 -121 89q-88 0 -160.5 -70t-80.5 -156z" />
<glyph unicode="1" horiz-adv-x="335" d="M59 326q0 86 21.5 264t21.5 268q0 33 35 76t78 43q47 0 84 -43t27 -88q-47 -244 -47 -492q0 -76 4 -155q4 -23 28.5 -54.5t24.5 -50.5q0 -14 -10 -28q-41 -43 -47 -48q-27 -20 -64 -20q-78 0 -113 68q-43 113 -43 260z" />
<glyph unicode="2" horiz-adv-x="858" d="M35 829q0 29 6 62q23 70 111 70q20 0 58 -4.5t52 -4.5q231 0 336 -61q82 -45 94 -55q55 -43 56 -93q0 -14 -7 -32q-59 -188 -335 -396q-33 -33 -33 -49q0 -10 20 -10q82 -12 205 -23q70 -4 207 -38q10 0 28.5 -15.5t18.5 -32.5q8 -43 -18.5 -82.5t-65.5 -50.5 q-127 -14 -205 -14t-176 18q-201 37 -246 45q-66 10 -65 91q0 45 18 77q53 96 182 215q170 154 213 205q2 4 3 11q0 12 -37 49q-25 12 -79 13t-80 12.5t-46 11.5q-25 0 -59.5 -20.5t-57.5 -20.5q-25 0 -55 16q-43 33 -43 106z" />
<glyph unicode="3" horiz-adv-x="692" d="M35 213q0 29 23.5 58.5t50 37.5t55.5 8q33 0 100.5 -14t100.5 -14q35 0 63 10q10 0 29.5 12.5t11.5 18.5q-27 72 -201 141q-158 63 -157 135q0 25 10 51q25 43 102 80q106 53 123 64q-35 20 -109.5 20t-105.5 23.5t-31 62.5q0 43 34 76t79 33q147 -12 172 -17 q96 -16 156.5 -54t60.5 -87q0 -51 -74 -127q-59 -57 -120 -115q10 -4 25.5 -24.5t25.5 -26.5q184 -37 227 -174q6 -20 6 -41q0 -115 -180 -205q-96 -47 -209 -47q-127 0 -233 58q-35 20 -35 57z" />
<glyph unicode="4" horiz-adv-x="753" d="M37 598q0 106 50 209.5t134 159.5q14 10 33 10q57 0 70 -51q6 -18 6 -41q0 -45 -38 -131t-38 -131q0 -25 8 -50q12 -39 58.5 -67.5t91.5 -28.5q29 0 47 15q57 45 76 170q27 188 30 202q33 100 131 113q57 -41 58 -111q0 -43 -39 -159q-37 -109 -29 -164q6 -23 6 -43 q0 -39 -57 -154q-43 -117 -43 -178q0 -41 12 -80q6 -18 -21.5 -37.5t-49 -35t-44.5 -15.5q-37 0 -71 47q-16 29 -17 68q0 20 5.5 62t5.5 63q0 25 -4 45q0 14 -13 16q-8 2 -29.5 -2t-31.5 -4q-92 0 -169 47t-99 119q-29 59 -29 137z" />
<glyph unicode="5" horiz-adv-x="811" d="M23 510q0 20 11 32.5t39.5 37t43.5 38.5q51 72 106.5 147t114.5 103q33 16 91 23.5t85 17t59 9.5q29 0 85.5 -10.5t84 -10.5t47 -17.5t19.5 -39.5q8 -41 -22.5 -74t-63.5 -33q-84 16 -148 17q-197 0 -266 -142q43 -18 139.5 -37.5t139.5 -38.5q78 -20 106 -77 q31 -39 31 -86q0 -39 -20 -78q-74 -131 -199 -211t-266 -80q-23 0 -45 2q-82 8 -82 102q0 37 14 72q59 80 96 80q8 0 18.5 -2t19.5 -30.5t20 -28.5q23 -6 45 -7q125 0 225 152q-55 59 -150 76q-49 8 -178 10q-115 2 -174 18q-27 14 -26 66z" />
<glyph unicode="6" horiz-adv-x="786" d="M27 414q0 213 145 391t360 231q23 6 46 6q45 0 75.5 -19t30.5 -42t-35 -35q-465 -223 -442 -551q80 18 158 39q96 23 161 23q113 0 205 -62q45 -31 45 -98q0 -76 -45 -119q-104 -149 -254 -172q-33 -6 -65 -6q-133 0 -234.5 77t-134.5 199q-16 68 -16 138zM319 221 q0 -74 80 -74q29 1 82 15q63 14 78 28q23 20 16 76q-6 49 -122 43q-133 -10 -134 -88z" />
<glyph unicode="7" horiz-adv-x="821" d="M10 817q0 14 8 31q8 27 35 60.5t49 33.5q146 0 420 84q66 20 129 21q88 0 154 -41q16 -16 16 -41q0 -14 -16 -66q-76 -158 -152 -317q-84 -188 -90 -334q10 -25 10 -62q-25 -39 -68.5 -70.5t-74.5 -31.5q-23 0 -35 18q-45 70 -45 156q0 109 90 289q117 233 133 291 q-98 0 -233 -41q-193 -57 -227 -66q-35 -6 -69 20.5t-34 65.5z" />
<glyph unicode="8" horiz-adv-x="886" d="M20 47q12 123 132 242q106 94 213 188q-27 33 -98.5 96.5t-98.5 100.5q-47 59 -47 123q0 16 4 30q156 115 410 115q82 0 172 -10q8 61 41.5 102t87.5 35q51 0 51 -76q0 -25 -8 -45q-51 -199 -275 -420q133 -133 129 -258q-6 -195 -385 -256q-80 -14 -137 -14 q-109 0 -191 47zM295 190q35 -25 84 -24q92 -1 139 65q27 31 27 64q0 66 -53 65q-10 0 -21 -4q-82 -31 -109 -57q-6 -8 -67 -109zM350 729q0 -33 34 -72t67 -39q37 0 73.5 42t36.5 77q0 23 -12 37q-31 33 -64 33q-35 0 -120 -49q-14 -8 -15 -29z" />
<glyph unicode="9" horiz-adv-x="622" d="M33 692q0 180 186 275q86 41 219 41q184 0 185 -113q-16 -133 -87 -398.5t-90 -408.5q0 -33 -34 -57q-31 -14 -62 -31q-29 -8 -71.5 14.5t-36.5 53.5q14 84 65 264q45 162 45 178q0 8 -4 6q-96 -47 -155 -47q-107 0 -150 145q-10 39 -10 78zM211 711q-4 -55 49 -56 q28 1 57 21q23 14 66 65q49 59 49 86q0 25 -57 25t-107.5 -43t-56.5 -98z" />
<glyph unicode=":" horiz-adv-x="325" d="M59 166q-8 76 37 117q39 37 101 36q51 1 86 -24q43 -31 43 -125q0 -104 -62 -141q-35 -18 -67 -19q-53 0 -91 47t-47 109zM59 776q-8 74 37 117q39 35 101 35q51 0 86 -25q41 -31 41 -110q0 -94 -64 -131q-39 -23 -76 -23q-51 0 -83.5 40t-41.5 97z" />
<glyph unicode=";" horiz-adv-x="321" d="M57 166q-8 76 37 117q39 37 101 36q102 0 102 -94q0 -98 -41 -233q-45 -143 -92 -170q-14 -8 -29 -8q-49 0 -65 143q-6 104 -13 209zM57 776q-8 74 37 117q39 35 101 35q51 0 86 -25q41 -31 41 -110q0 -94 -64 -131q-39 -23 -76 -23q-51 0 -83.5 40t-41.5 97z" />
<glyph unicode="&#x3c;" horiz-adv-x="935" d="M0 600q0 88 78 164q94 76 311 174q211 94 305 174h47t77 -24.5t30 -57.5q0 -25 -19 -43q-68 -74 -278 -158q-195 -78 -262 -180q115 -70 301 -151q297 -133 307 -138q39 -18 39 -59q4 -51 -40 -87t-101 -36q-23 0 -43 8q-25 25 -68 58q-270 147 -578 280q-31 12 -61 23 q-39 18 -45 53z" />
<glyph unicode="=" horiz-adv-x="561" d="M51 840q0 10 6 20q41 78 156 78q33 0 106.5 -8t110.5 -8q26 0 49 2q59 10 78 -43q4 -14 4 -29q0 -59 -82 -80q-104 -37 -207 -37q-84 0 -161 27q-20 8 -40 31.5t-20 46.5zM63 508q0 37 33 70q31 27 70 34q78 1 174 -75q10 -8 25 -9q16 0 50 17.5t52 17.5t35 -16 q12 -6 20 10t13 12q23 -25 22 -51q0 -45 -45 -67q-92 -94 -229 -95q-152 0 -215 127q-4 12 -5 25z" />
<glyph unicode="&#x3e;" horiz-adv-x="792" d="M6 1032q0 25 28.5 54.5t55.5 29.5q16 4 33 4q47 0 117 -28q53 -23 108 -48q250 -82 410 -231q35 -25 35 -57q0 -53 -80 -103q-94 -59 -281 -209q-172 -137 -278 -200q-20 -10 -41 -11q-31 0 -53.5 21.5t-22.5 50.5q0 25 18 45q25 41 115 90q59 31 147 101q106 86 148 112 q90 45 90 64q0 4 -2 8q-49 86 -162 129q-100 29 -203 59q-121 37 -178 105q-4 6 -4 14z" />
<glyph unicode="?" horiz-adv-x="675" d="M18 1217q0 53 50 81q100 20 149 0q106 -39 213 -77q125 -49 205 -111q51 -53 39 -80q-29 -106 -168 -209q-172 -125 -209 -178q-16 -23 -16 -53q0 -33 24.5 -101.5t24.5 -99.5q0 -37 -25 -63q-12 -14 -49 -15q-36 1 -59 15q-141 94 -142 276q0 43 13 82q27 84 187.5 161 t199.5 167q-63 35 -202.5 79t-205.5 78q-29 12 -29 48zM84 88q0 39 43 70q31 18 119 18q70 -10 69 -72q0 -45 -39.5 -74.5t-89.5 -29.5q-35 0 -59 18q-43 31 -43 70z" />
<glyph unicode="@" horiz-adv-x="1028" d="M23 434q0 47 12 94q129 451 348 670q113 113 283 113q35 0 75 -6q143 -18 222 -144q66 -106 65 -258q0 -59 -10 -115q-12 -63 -88 -106q-106 -61 -117 -72q-20 -16 -31 -82q-12 -82 -24 -106q-31 -72 -110 -123t-161 -51q-90 0 -139 67q-33 43 -33 103q0 39 15 102 q35 152 104 250q86 125 209 125q68 0 178 -152q6 -10 15 -10q23 0 38 45q18 53 19 113q0 92 -46 193.5t-171 101.5q-98 0 -168 -68q-256 -256 -303 -678q-12 -106 63 -194q66 -74 178 -119q31 -12 56 -12q35 0 69 20q10 -18 35 -12q16 8 35 14q4 -10 10 -18 q-6 -119 -159 -119q-78 0 -152 29q-102 39 -268 204q-18 29 -37 99q-12 55 -12 102zM500 483q-6 -70 18 -88q12 -10 27 -10q33 0 61 55q45 80 45 156q0 57 -26 102q-113 -96 -125 -215z" />
<glyph unicode="A" horiz-adv-x="823" d="M31 80q0 63 30 160q43 133 50 159q57 268 137 508q10 31 45 195q25 115 67 174q23 35 89 35q39 0 49 -25q68 -145 123 -360q45 -188 90 -379q0 -14 27.5 -28.5t35.5 -28t8 -29.5t-8 -25q-16 -39 -16 -80q0 -47 37 -149q28 -75 28 -126q0 -13 -2 -24q-8 -57 -90 -57 q-45 0 -67 31q-29 39 -50 166q-16 106 -69 139q-43 24 -100 24h-5q-96 0 -164 -53q-31 -25 -67 -176q-31 -131 -100 -131q-31 0 -72 20q-6 29 -6 60zM303 537q0 -25 19 -35q39 -20 96 -21q84 0 98 47q10 35 10 74q0 68 -34 156q-6 18 -68 149q-46 -55 -64 -184 q-6 -31 -32 -100q-25 -61 -25 -86z" />
<glyph unicode="B" horiz-adv-x="813" d="M33 1212q0 37 29.5 67t52.5 30h191h-1q109 -6 176 -43q18 -10 154 -60q94 -33 135 -90q18 -39 8 -61l-125 -107q-74 -66 -137 -102q-6 0 -19.5 -9.5t-13.5 -17.5q0 -6 9 -8q266 -49 313 -217q8 -31 8 -64q0 -121 -147 -268q-254 -254 -445 -262h-7q-23 0 -42 12 q-29 16 -29 41q0 27 39 66t39 47q4 43 4 88q0 92 -49 383q-2 14 -18 59q-16 39 -17 64q0 27 19 51q10 10 10 36t-10 68q-2 6 -2 27q0 32 4 98v7q0 72 -37 96q-8 8 -39 10t-42 19.5t-11 39.5zM334 1047q-1 -5 -1 -13q0 -15 5 -38q8 -35 4 -54q9 -1 18 -1q52 0 98 31 q54 36 68 83q2 6 2 10q0 16 -43 33q-68 25 -73 26q-12 8 -23 9q-39 0 -55 -86zM358 596q0 -25 13 -74q12 -58 14 -78l12 -102q8 -59 25 -98q123 102 133 112q70 70 70 144q0 16 -4 32q-8 47 -70 88.5t-119 41.5q-41 0 -63 -25q-10 -16 -11 -41z" />
<glyph unicode="C" horiz-adv-x="921" d="M18 442q0 188 95 336q102 160 278 203q53 12 107 12q76 0 190 -32q78 -23 78 -87q0 -16 -10 -32q-16 -31 -54 -41t-73 -19q-20 -6 -43 -6q-27 0 -76 11.5t-72 11.5q-18 0 -32 -6q-178 -61 -179 -279q0 -61 19 -123q31 -98 114.5 -157.5t186.5 -59.5q51 0 100 16 q18 6 84 48q53 34 82 34h2q18 0 33 -10q72 -57 72 -110q0 -35 -37 -62q-119 -86 -281 -86q-109 0 -231 37q-154 47 -228 109q-125 104 -125 292z" />
<glyph unicode="D" horiz-adv-x="778" d="M45 1102v43q18 72 109 72q16 0 30 -3q147 0 250 -69q152 -100 262 -252q82 -113 82 -246q0 -154 -102 -299q-96 -137 -242 -209q-100 -51 -184 -51q-49 0 -92 16q-35 12 -62.5 44t-27.5 65q0 10 4 19.5t39 35.5q29 20 30 41q1 25 1 52q0 234 -46 663q0 14 -18 39z M285 993q0 -94 12 -385q14 -334 26.5 -335t24.5 -1q96 0 166 109q102 158 102 252q0 37 -12 69q-39 109 -119 189q-90 90 -200 102z" />
<glyph unicode="E" horiz-adv-x="735" d="M31 604q0 14 8 25l29 28q10 19 10 123q0 31 -12.5 98.5t-12.5 98.5q0 53 25 88q98 141 297 141q147 0 260 -86q14 -10 14 -30q0 -23 -23.5 -45.5t-56.5 -28.5q-7 -1 -16 -1q-34 0 -84 13q-70 18 -98 19q-31 0 -58 -11q-55 -25 -55 -104q0 -18 4 -60.5t4 -62.5 q0 -41 -10 -66q39 -22 99 -22h5q20 0 60.5 3t58.5 3q111 0 146 -88q-41 -74 -168 -76q-139 -2 -174 -40t-35 -124v3q2 0 18 -197q25 -6 51 -6q76 0 189 47q154 63 186 71q8 10 37 -18q6 -20 6 -41q0 -76 -71 -102q-111 -41 -220 -84q-114 -39 -208 -39h-17q-39 4 -78 7 t-45 32q-20 61 -20 147q0 29 3 87.5t3 88.5q0 74 -14 129q-2 8 -21 39q-16 25 -16 41z" />
<glyph unicode="F" horiz-adv-x="712" d="M29 496q0 14 11 28.5t62 44.5q43 27 48.5 47.5t5.5 42.5q0 37 -15 93q-14 45 -26 90q-48 193 -48 329q0 24 1 46q0 16 12 35.5t24 19.5q113 39 236 39q184 0 344 -86q29 -14 29 -37q0 -39 -74 -84q-31 -14 -66 -14q-41 0 -139 40q-72 30 -122 30q-11 0 -21 -1 q-6 -43 -6 -90q0 -90 28 -219q27 -106 54 -215h13q30 0 85 6q80 8 110 8q121 0 121 -81v-5q-2 -55 -125 -63q-133 -8 -147 -38t-14 -63q0 -49 41 -137q49 -109 57 -141q6 -16 6 -33q0 -39 -34 -63.5t-74 -24.5q-35 0 -58 18q-57 57 -88 210t-80 210q-4 8 -14 8q-4 0 -34 -6 t-46 -2q-57 14 -57 58z" />
<glyph unicode="G" horiz-adv-x="806" d="M35 487q0 367 258 549q106 76 233 76t238 -76q25 -16 24 -39q0 -37 -43 -59q-35 -16 -77 -16q-29 0 -86.5 11t-85.5 11q-25 0 -45 -6q-90 -23 -158 -205q-55 -152 -55 -280q0 -209 153 -281q23 -10 49 -10q57 0 78 39q47 96 47 127q0 33 -26 51q-59 29 -60 39 q-14 20 -14 41q0 61 123 96q27 8 59 8q63 0 111.5 -30.5t48.5 -81.5q0 -25 -12 -54q0 -4 -20.5 -14t-20.5 -14q0 -39 -15 -99q-20 -80 -24 -98q-4 -29 -37 -57q-45 -43 -51 -52q-23 -16 -64 -24q-51 -8 -63 -14q-59 -25 -123 -25q-113 0 -205 76t-114.5 192.5t-22.5 218.5z " />
<glyph unicode="H" horiz-adv-x="802" d="M49 627q2 14 13.5 51t13.5 59v25q0 41 -4 106q-6 94 -6 133q0 127 43 205q25 43 96 43q45 0 86 -20q50 -46 50 -84q0 -4 -1 -8q-4 -27 -35 -148q-25 -94 -25 -149q0 -61 30 -106.5t126 -45.5q47 0 58 25q28 75 28 198v9q0 25 -2 73v76q0 78 8 133q12 82 113 82 q68 0 84 -39q29 -76 29 -176q0 -55 -17 -197q-9 -94 -9 -157q0 -21 1 -39q2 -14 34 -48t34 -57q2 -18 -19.5 -39.5t-23.5 -27.5q-8 -47 -9 -101q0 -76 29 -226t29 -228q-29 -6 -53 -6q-98 0 -146 102q-31 66 -51 223q-23 168 -43.5 224.5t-106.5 56.5q-74 0 -88 -29 q-28 -42 -29 -102q0 -45 16.5 -136.5t16.5 -136.5q0 -53 -16 -96h-11q-115 0 -167 84q-39 66 -47 201q-6 103 -12 205q-2 12 -13 49q-5 20 -5 32q0 4 1 7z" />
<glyph unicode="I" horiz-adv-x="329" d="M57 594q-1 48 -1 90q0 85 3 150q4 131 22.5 244.5t123.5 113.5q49 0 100 -35q25 -23 25 -47q0 -6 -2 -12q-61 -178 -62 -428q0 -80 10 -283q7 -158 7 -257v-24q-2 -32 -68 -32h-4q-35 0 -61 14q-66 33 -82 115q-9 34 -9 151q0 14 -2 240z" />
<glyph unicode="J" horiz-adv-x="784" d="M33 424q0 129 28 178q51 53 123 53q86 0 86 -88q0 -37 -20.5 -74.5t-20.5 -95.5q0 -111 80 -141q27 -10 58 -10q82 0 100 59q31 90 31 191q0 131 -54 305q-53 147 -104 297q-5 15 -5 31q0 24 13 49q16 27 66.5 34t62.5 25q12 -12 58 -20q33 -8 32 -29q12 -100 88 -361 q63 -225 64 -354q0 -119 -43 -217q-72 -164 -314 -164q-74 0 -161 14q-106 20 -144 121q-24 68 -24 197z" />
<glyph unicode="K" horiz-adv-x="714" d="M31 1217q0 33 40 62.5t85 31.5h6q90 0 90 -117q0 -20 -3 -67.5t-3 -69.5q0 -92 35 -92q31 0 73 43q12 8 107 96q71 67 113 67h1q37 0 75 -27.5t38 -56.5q0 -8 -4 -14q-47 -80 -178 -155q-162 -92 -201 -127q-4 -6 -4 -15q0 -25 47 -86q66 -88 66 -90l176 -172 q100 -106 123 -197q1 -3 1 -7q0 -22 -33 -44q-38 -26 -85 -26q-37 0 -64 22q-49 39 -141 160q-119 156 -127 166q-6 -25 -6 -56q0 -131 61 -360q10 -36 10 -65q0 -39 -18 -66q-29 -57 -88 -57q-27 0 -55 14q-47 23 -47 65q0 132 -51 519q-39 285 -39 721z" />
<glyph unicode="L" horiz-adv-x="880" d="M27 178q0 33 7 98.5t7 96.5q0 426 80 860q6 31 42 52.5t75 21.5q74 0 84 -61.5t10 -133.5q0 -115 -40 -344t-40 -348q0 -104 22 -195q297 0 406 54q48 32 84 32h2q23 0 41 -8q74 -76 74 -115q0 -8 -4 -14q-106 -123 -365 -125h-117q-182 -2 -284 -49q-84 53 -84 178z" />
<glyph unicode="M" horiz-adv-x="1232" d="M27 307q0 59 32 168q37 129 43 172q16 201 62 600q8 63 96 64q61 0 82 -35q68 -90 109 -248q37 -135 71 -270q35 -35 39 -31q41 59 98.5 215t98.5 215q68 98 170 98q29 0 63 -8q66 -190 121 -571q57 -393 119 -576q2 -10 2 -18q0 -64 -92 -82q-42 -8 -67.5 -8t-33.5 8 q-74 145 -106 438q-37 307 -92 439q-43 -70 -88 -205q-51 -154 -82 -213q-4 -10 0 -35t0 -35q-45 -88 -127 -88q-23 0 -43 8q-31 8 -55.5 35t-24.5 55q-25 231 -100 232q-16 0 -17 -35q0 -10 2 -32.5t2 -33.5q0 -23 -10 -65.5t-10 -67.5q0 -20 3 -65t3 -66q0 -20 -2 -37 q-4 -37 -44 -57t-89 -20q-59 0 -86 28q-47 49 -47 127z" />
<glyph unicode="N" horiz-adv-x="694" d="M47 174q12 100 25 412q10 254 43 411q6 29 61 29q51 0 72 -20q63 -84 130.5 -282t131.5 -282q14 39 18 84q1 16 1 37t-1 47q-2 70 -2 84q0 70 -31.5 209t-31.5 209q0 33 4 62q8 49 84 49q55 0 67 -33q53 -139 68 -330q8 -94 8 -342q0 -211 -84 -295q-29 -35 -84 -35 q-45 0 -67 27q-51 59 -107 160l-86 168q-24 -59 -24 -143v-7q0 -23 2 -66.5t2 -66.5q0 -70 -13.5 -118t-82.5 -48q-54 0 -87 37q-16 20 -16 43z" />
<glyph unicode="O" horiz-adv-x="827" d="M43 489q0 164 144.5 320t304.5 156q141 0 247 -138q88 -115 88 -260q0 -113 -53 -214t-147 -165q-108 -71 -221 -71h-3q-106 0 -190 61q-170 123 -170 311zM268 457q39 -180 150 -181q25 0 53 13q156 72 156 266q0 47 -11 92q-25 94 -163 94q-20 0 -39 -4 q-48 -9 -102 -119q-46 -93 -46 -144q0 -9 2 -17z" />
<glyph unicode="P" horiz-adv-x="972" d="M18 1163q0 72 45 90q147 57 304 58q367 0 604 -273q2 -29 2 -53q0 -223 -246 -373q-104 -63 -448 -188q-2 -14 -2 -30q0 -44 12 -105q18 -94 18 -129q0 -29 -6 -54q-14 -45 -56 -75.5t-95 -30.5q-20 0 -41 4l-46 47q-22 165 -22 347v16v15q0 179 22 415q8 92 15 125 q12 70 41 114q-10 4 -39 10.5t-39 12.5q-23 20 -23 57zM268 725q0 -51 33 -62.5t70 -11.5q115 0 229.5 90t142.5 205q-240 180 -387 180q-39 0 -77 -10q-2 0 18 -20q27 -27 27 -47q0 -29 -17.5 -80t-17.5 -78t-10.5 -85t-10.5 -81z" />
<glyph unicode="Q" horiz-adv-x="866" d="M29 774q0 102 80 236q37 47 106 96q61 41 123 82q31 31 92 53q100 35 109 37q70 33 110 33q37 0 68 -23q49 -35 49 -90q0 -53 -57 -59q157 -303 157 -496q0 -180 -118 -303q47 -141 47 -197q0 -45 -17 -84q-16 -59 -78 -59q-18 0 -32 10q-47 33 -62.5 130.5t-48.5 118 t-149 44.5q-99 23 -150 68q-59 53 -88 82q-49 49 -82 96q-18 31 -49 149q-10 37 -10 76zM229 750q8 -121 119 -230q76 -78 113 -78q20 0 37 17q12 4 12 14q0 8 -11.5 31.5t-11.5 34.5q0 82 52 100q16 6 30 6q43 0 109 -65q14 53 14 112q0 109 -50 206t-134 151 q-27 16 -57 16q-84 0 -157 -109q-66 -97 -66 -187q0 -9 1 -19z" />
<glyph unicode="R" horiz-adv-x="839" d="M47 381v-3v288q0 61 32 180t32 174q0 45 -15 80q-18 90 -18 94q0 37 28 53q104 63 230 64q139 0 270 -77t209 -204q25 -39 25 -80q0 -117 -222 -264q70 -367 197 -610q6 -10 6 -19q0 -25 -30.5 -41t-67.5 -16q-35 0 -55 16q-94 78 -148 283q-59 221 -127 299 q-20 20 -69 20q-63 0 -80 -30q-14 -47 -15 -103q0 -66 31 -190q33 -142 33 -193q0 -27 -45 -46q-33 -13 -65 -13q-14 0 -27 2q-35 12 -60 59q-43 113 -49 277zM252 819q0 -43 102 -43q154 0 264 96q45 23 46 54q0 8 -7 16q-76 154 -295 178h-5q-43 0 -56 -69 q-8 -60 -16 -119q-33 -96 -33 -113z" />
<glyph unicode="S" horiz-adv-x="903" d="M10 981q0 18 17 37q113 141 338 205q201 43 399 86q12 2 24 2q39 0 77 -28t38 -64q0 -66 -94 -89q-66 -25 -240 -49q-150 -20 -229 -63q-37 -20 -37 -43q0 -6 2 -12q59 -90 211 -201q190 -137 229 -176q109 -106 109 -224q0 -39 -12 -81q-37 -139 -176 -215 q-127 -68 -297 -68q-158 0 -287 59q-59 27 -59 86q0 45 33.5 91.5t80.5 68.5q4 1 9 1q26 0 47 -32q27 -43 45 -49q45 0 135 -22q33 -16 69 -17q39 0 90 23q43 20 86 39q37 29 37 76q0 29 -14 59q-78 100 -273.5 239.5t-275.5 241.5q-27 31 -54.5 62.5t-27.5 56.5z" />
<glyph unicode="T" horiz-adv-x="884" d="M6 1104q0 59 57 88q219 109 474 113h174q74 0 139 4q6 0 16.5 -18.5t12.5 -20.5q6 -14 6 -27q0 -72 -94 -104q-12 -2 -220 -19q-74 -352 -90 -1016q0 -33 -52 -68.5t-87 -35.5q-25 0 -42 21.5t-17 41.5q-4 51 -4 107q0 154 31.5 457t31.5 454q0 25 -23 25q-4 0 -77 -25 q-20 -4 -74.5 -30.5t-83.5 -26.5q-33 0 -55.5 23.5t-22.5 56.5z" />
<glyph unicode="U" horiz-adv-x="983" d="M41 682q0 176 57 362q14 43 53 72t87 29q33 0 63 -15q35 -35 35 -73q0 -10 -4 -23q-72 -164 -72 -348q0 -301 189 -414q39 -24 76 -24h3q84 0 148 110q53 92 69 211q16 70 17 154q0 63 -13.5 192t-13.5 193q-1 6 -1 11q0 41 54 67q31 16 127 39q0 -16 20.5 -24.5 t20.5 -16.5q27 -193 27 -328q0 -330 -154 -553q-68 -98 -178 -166q-117 -71 -224 -71h-2.5h-3.5q-110 0 -183 79q-197 207 -197 537z" />
<glyph unicode="V" horiz-adv-x="833" d="M29 968q4 25 47 58t82 33q35 0 49 -33q29 -66 88 -309q49 -201 125 -305q68 147 121 413q66 317 100 422q8 25 47 44.5t78 19.5q66 0 66 -56q0 -8 -1 -18q-49 -313 -180 -784q-49 -170 -82 -383q-6 -29 -45 -49.5t-86 -20.5q-72 0 -80 31q-16 63 -76.5 159.5t-74.5 141.5 q-57 145 -115 291q-67 171 -67 293q0 27 4 52z" />
<glyph unicode="W" horiz-adv-x="1247" d="M37 741q0 109 18 215q12 39 51 69t78 30q41 0 64 -33q35 -49 35 -121q0 -33 -10.5 -102.5t-10.5 -104.5q0 -37 8 -69q14 -70 27 -142q18 -80 59 -127q55 61 111.5 207t101.5 201q52 65 109 65h2q70 0 141 -100q55 -80 92 -190q0 -16 17.5 -44t25.5 -20q72 88 72 225 q0 47 -10 144.5t-10 146.5q0 63 12 117q12 25 46 44t67 19q23 0 36 -10q78 -61 78 -190q0 -35 -6 -104.5t-6 -102.5q0 -195 -86 -418q-29 -53 -35 -67q-25 -39 -51 -60q-47 -39 -92 -39q-98 0 -176 156q-74 150 -129 225q-31 -43 -97 -182q-61 -127 -110 -182 q-72 -82 -168 -82q-31 0 -64 6q-190 264 -190 620z" />
<glyph unicode="X" horiz-adv-x="1017" d="M10 281q-1 8 -1 16q0 18 7 31q39 39 220 166q137 94 186 188q-66 76 -171.5 233.5t-170.5 235.5q-20 25 -21 53q0 41 46.5 74t93.5 33q27 0 41 -11q98 -70 194 -223l158 -258q43 27 107.5 101.5t107.5 101.5q59 31 104 31q37 0 76 -19q18 -18 18 -39q0 -12 -6 -26 q-35 -70 -143 -154q-119 -94 -156 -145q80 -133 162 -267q94 -158 148 -266q8 -18 8 -33q0 -43 -94 -96q-16 -8 -35 -8q-57 0 -82 51q-72 193 -279 459q-33 -18 -206 -166q-124 -108 -224 -108h-2q-28 0 -59 8q-20 6 -27 37z" />
<glyph unicode="Y" horiz-adv-x="739" d="M23 1223q-1 5 -1 9q0 30 32 52q38 27 81 27q29 0 43 -13q59 -53 107 -239q47 -197 96 -254q33 43 88 235q49 170 117 220q32 24 70 24h3q80 0 80 -57q0 -10 -4 -23q-80 -199 -233 -557q-10 -27 -10 -55q0 -55 36 -103q8 -8 9 -22q0 -27 -17 -61q-10 -8 -55 -25 q-37 -12 -47 -39q-31 -152 -99 -430q-14 -47 -83 -47q-58 0 -78 37q-10 17 -10 51q0 22 4 51q8 53 73 260q47 144 47 226q0 15 -2 28q-14 109 -123.5 348.5t-123.5 356.5z" />
<glyph unicode="Z" horiz-adv-x="1101" d="M0 1110q0 35 36 73t75 46q82 20 170 20q111 0 264 -32q133 -29 264 -58q144 -48 144 -131q0 -6 -1 -12q-25 -209 -207 -432q-164 -180 -327 -361q80 -10 147 -10q59 0 143.5 10t131.5 10q86 0 200 -22q61 -20 62 -80q0 -43 -31 -77t-78 -34q-172 0 -364.5 -5t-364.5 -5 q-16 0 -58 -5t-63 -5q-92 0 -114 80q0 59 69 106q289 248 367 334q186 205 227 414q1 3 1 6q0 30 -58 43q-109 20 -109 23q-64 26 -154 26h-7q-29 0 -86.5 -3t-83.5 -3q-104 0 -166 37q-29 18 -29 47z" />
<glyph unicode="[" horiz-adv-x="1067" d="M8 158q45 47 45 82q76 238 127 555q6 39 6 82t-8 126.5t-8 124.5q0 57 10 107q154 76 352 76q250 0 494 -111q41 -18 41 -53q0 -39 -45 -75t-88 -34q-72 2 -246 31q-158 27 -252 27q-29 -315 -151 -787q0 -74 0 -55q2 -31 24 -37q80 -12 158 -12q154 0 305 47 q63 10 64 -84q0 -27 -7 -55q-20 -41 -127 -70q-160 -43 -299 -43q-201 0 -360 88q-6 0 -14.5 28.5t-20.5 41.5z" />
<glyph unicode="\" horiz-adv-x="845" d="M0 1204q0 70 76 92q18 2 48 8.5t40 6.5q31 0 33 -39q59 -201 192 -438q17 -29 246 -406q10 -18 108 -160q66 -96 91 -159q12 -31 12 -56q0 -59 -66 -59q-70 0 -114 55q-193 229 -342 494q-29 51 -287 553q-37 59 -37 108z" />
<glyph unicode="]" horiz-adv-x="907" d="M23 1217q12 86 137 92q74 4 205 -17q143 -23 206 -22q29 0 85 6t85 6q166 0 166 -80q0 -29 -22 -65q-123 -205 -123 -494q0 -145 31 -324q39 -117 38 -141q0 -43 -26 -76q-35 -35 -70 -34q-53 -6 -219 -41q-135 -29 -215 -29q-98 0 -176 35q-53 23 -53 67q0 57 65 93 q49 27 139 26h49h48q100 0 155 33q27 14 27 55q0 23 -13.5 76t-13.5 76q-4 100 30 310t28 323q-43 -4 -92 -5q-61 0 -185.5 7.5t-183.5 7.5q-35 0 -68.5 37t-33.5 78z" />
<glyph unicode="^" horiz-adv-x="636" d="M37 848q0 16 16 39q78 109 157 218t132 206h41q29 0 41 -6q18 -25 114.5 -242t98.5 -236q-8 0 -19.5 -16t-21.5 -12q-49 4 -107 24q-53 135 -124 232q-39 -74 -84 -125q-53 -55 -107 -111q-14 -16 -55 -16q-35 2 -58.5 13t-23.5 32z" />
<glyph unicode="_" />
<glyph unicode="`" horiz-adv-x="337" d="M53 1217q0 41 45 69.5t88 24.5q72 -11 109 -148q43 -164 43 -182q0 -47 -49 -53q-49 -8 -99 71q-29 39 -127 181q-10 18 -10 37z" />
<glyph unicode="a" horiz-adv-x="724" d="M39 301q0 104 51 172q123 166 361 166q102 0 98 -6q16 25 16 69q0 53 -30.5 60.5t-61.5 7.5q-53 0 -117.5 -25.5t-126.5 -48.5q-10 -4 -18 -4q-33 0 -53 47q-16 37 -17 80q0 27 6 33q135 92 306 92q178 0 239 -127q33 -70 33 -151q0 -68 -27 -191q-31 -135 -36 -196 q-10 -154 -21 -209q-25 -125 -78 -125q-16 0 -33.5 11t-35.5 46q-16 29 -31 29q-109 18 -219 37q-121 31 -172 118q-33 43 -33 115zM188 301q-2 -47 91 -80q80 -31 159 -31q48 1 54 15q6 29 26 102q18 57 19 94q0 43 -19 86q-104 -23 -207 -43q-121 -35 -123 -143z" />
<glyph unicode="b" horiz-adv-x="821" d="M25 739q0 10 4 19.5t19 26t22 26.5q2 31 2 68q0 29 -2 89t-2 91q0 80 12 139q8 37 44 75t71 38q27 0 47 -27q43 -43 43 -108q0 -35 -18.5 -114t-18.5 -118q0 -57 24 -100q190 -10 326 -80q160 -82 211 -232q12 -35 12 -71q0 -78 -47 -160q-45 -74 -115 -123 q-252 -178 -432 -178q-36 0 -71 6q-25 4 -54 66q-8 63 -14 282q-4 174 -29 285q-10 25 -20 47q-14 31 -14 53zM252 672q0 -311 53 -461q121 8 215 70q107 71 107 169v7q-2 90 -113 155q-102 61 -219 62q-23 0 -43 -2z" />
<glyph unicode="c" horiz-adv-x="774" d="M23 457q0 36 6 75q33 193 170 316q113 100 153 129q95 67 176 67h2q43 0 82 -18q31 -12 31 -49q0 -14 -4 -31q-25 -74 -107 -115q-137 -66 -149 -73q-152 -115 -160 -246q-1 -15 -1 -30q0 -92 44 -160q27 -43 84 -68q51 -16 105 -35q18 -8 39 -8q45 0 119.5 58.5 t111.5 60.5h7q42 0 42 -45q0 -53 -37 -111q-80 -123 -248 -123q-88 0 -202 33q-123 35 -193.5 137.5t-70.5 235.5z" />
<glyph unicode="d" horiz-adv-x="757" d="M29 459q0 113 88 194q55 51 195.5 120t189.5 108q27 23 37 98q10 94 22 119q42 73 107 73h2q14 0 28 -4q62 -27 62 -66q0 -7 -2 -14q-92 -252 -92 -563q0 -211 43 -461q0 -14 -29 -31.5t-51 -17.5h-6q-45 0 -78 60q-35 64 -53 69q-18 0 -55.5 -3t-53.5 -3q-76 0 -127 35 q-117 78 -152 113q-75 76 -75 174zM236 487q10 -63 65 -114t121 -51q25 0 49 8q-4 33 -4 69q0 45 12.5 136.5t12.5 138.5q-98 0 -177 -45q-81 -47 -81 -120q0 -10 2 -22z" />
<glyph unicode="e" horiz-adv-x="694" d="M45 578v6q0 135 82 226q84 93 215 93q138 1 246 -105q106 -104 106 -242v-5q-18 -57 -153 -137q-168 -100 -187 -119q-35 -16 -35 -35q0 -33 45.5 -58.5t79.5 -25.5q68 0 195 66q39 -29 39 -78q0 -39 -24.5 -72t-63.5 -39q-131 -20 -166 -20q-70 0 -125 24 q-244 109 -254 521zM223 586q0 -109 45 -113q182 8 221 129q8 16 9 33q0 43 -45 69.5t-101 26.5q-41 0 -69 -16q-59 -31 -60 -129z" />
<glyph unicode="f" horiz-adv-x="735" d="M27 381q8 12 55 41q35 19 35 50q0 38 -27 163q-20 104 -20 166q0 185 161 338q129 123 295 123t209 -154q1 -5 1 -9q0 -24 -18 -41q-20 -22 -48 -18q-20 2 -90 19q-55 14 -91 14q-35 0 -67 -12q-180 -63 -180 -273q0 -127 63 -262q20 4 156 64q115 51 168 51q16 0 28 -4 q45 -6 45 -57q0 -16 -6 -31q-16 -45 -162.5 -97.5t-152.5 -82.5q-1 -6 -1 -12q0 -46 50 -109q72 -90 82 -123q4 -8 4 -14q0 -25 -33.5 -41.5t-70.5 -16.5q-25 0 -39 6q-51 33 -102.5 126.5t-96.5 119.5q-12 -1 -29 -1q-33 0 -82 5q-20 -2 -30 23q-7 17 -7 35q0 7 1 14z" />
<glyph unicode="g" horiz-adv-x="669" d="M43 668q0 120 96 202q162 137 338 138q82 0 152 -37q42 -21 42 -52q0 -5 -1 -10q-80 -166 -80 -395q0 -96 21.5 -285.5t21.5 -285.5q0 -156 -96 -211q-66 -37 -148 -37q-104 0 -192 57.5t-121 151.5q-4 12 -4 22q0 31 26.5 52.5t59.5 21.5q29 0 43 -18q8 -8 63 -74 q39 -47 70 -68q36 -23 75 -23q9 0 19 1q12 6 39 55q12 74 12 156q0 121 -45 374q0 2 4 19.5t4 26.5q0 23 -22 8q-90 -53 -162 -54q-37 0 -72 15q-61 25 -116 125q-27 63 -27 125zM209 668q18 -141 78 -142h6q45 0 78 58q29 57 57 114q20 39 21 95q0 39 -13.5 60t-40.5 21 q-53 0 -125 -60q-63 -51 -63 -122q0 -12 2 -24z" />
<glyph unicode="h" horiz-adv-x="692" d="M49 154q0 84 13.5 249.5t13.5 249.5q0 33 -6.5 102.5t-6.5 104.5q0 78 29 131q20 51 94 51q27 0 50 -10q27 -16 26 -84q-24 -203 -24 -269v-5q0 -102 24 -187q123 213 262 213q39 0 78 -16q90 -375 90 -545q0 -49 -4 -96q-2 -25 -31.5 -41t-64.5 -16q-33 0 -49 16 q-55 70 -56 213v40v42q0 127 -36 199q-125 -125 -224 -332q-12 -20 -49 -34.5t-61 -8.5q-20 4 -41 10q-27 8 -27 23z" />
<glyph unicode="i" d="M78 305q0 35 4 106.5t4 106.5q0 162 37 234q29 57 100 57q31 0 60 -12q57 -27 57 -70q0 -16 -12 -29q-37 -51 -39 -133q-6 -100 -16.5 -128.5t-10.5 -65.5q0 -27 9.5 -81t9.5 -83t-3.5 -55.5t-21.5 -26.5q-45 -12 -80 -12q-66 0 -82 49q-16 59 -16 143zM123 1028 q0 78 43 102.5t92 24.5q41 0 72.5 -22.5t31.5 -63.5q0 -35 -22.5 -73t-47 -52t-52.5 -14q-60 0 -103 51q-14 16 -14 47z" />
<glyph unicode="j" horiz-adv-x="397" d="M-221 -127q0 35 31.5 62.5t66.5 27.5q29 0 51 -37q35 -55 37 -57q33 -16 49 -16q82 55 115 165q20 63 33 203q2 29 2 60q0 72 -22.5 217t-22.5 219v7q0 88 26 163q12 37 80 37q74 0 92 -54q1 -6 1 -14q0 -23 -9 -59.5t-9 -59.5q0 -8 1 -14q2 -47 18 -221q12 -141 13 -226 q0 -365 -228 -530q-49 -35 -116 -35q-68 0 -124.5 35t-78.5 98q-6 14 -6 29zM59 1157q0 45 33 76q45 39 101 39q61 0 92 -47q25 -39 24 -88q0 -68 -45 -97.5t-84 -29.5h-2q-63 0 -96 67q-23 45 -23 80z" />
<glyph unicode="k" horiz-adv-x="774" d="M20 1122q0 76 23 127q25 61 123 62q23 0 43 -6q27 -27 27 -45q0 -82 -13 -302q-7 -133 -7 -228q0 -38 1 -71q6 -8 47 -8q59 45 117 90q70 47 127 47q45 0 88 -26q27 -14 27 -35q0 -41 -54 -68q-18 -12 -106 -61q-70 -39 -107 -76q147 -111 406 -350q12 -16 12 -33 q0 -35 -39 -59q-29 -37 -78 -37q-41 0 -61 27q-45 47 -324 276q-10 8 -18 8q-14 0 -8 -26q-1 -10 -1 -22q0 -40 10 -107t10 -107q0 -12 -1 -22q-8 -70 -98 -70q-47 0 -60 25q-77 180 -77 453v7q0 105 14 322q1 14 1 31q0 51 -9 127q-14 115 -15 157z" />
<glyph unicode="l" horiz-adv-x="405" d="M59 100q0 16 7 33q37 127 43 307q4 158 8 314v11q-1 61 -19 172q-20 122 -20 175q0 76 28 133q33 66 113 66q82 0 88 -86q1 -3 1 -7q0 -13 -5 -36q-6 -31 -6 -39v-438q-2 -29 -2 -65q0 -54 4 -126q8 -141 8 -186q0 -166 -51 -277q-23 -51 -82 -51q-39 0 -77 21.5 t-38 78.5z" />
<glyph unicode="m" horiz-adv-x="1241" d="M35 662q0 196 134 196h1q25 0 53 -8q57 -16 58 -78q0 -20 -7.5 -65t-7.5 -66q0 -41 17 -66q41 37 88 127q55 102 82 134q49 61 114 61q33 0 72 -16l41 -39q8 -33 16 -121q8 -74 25 -115q70 78 137 156q90 84 172 84q39 0 78 -15q31 -20 37 -69q2 -41 4 -84 q22 -159 22 -286v-11q0 -236 -73 -426q-18 -63 -105 -64q-47 0 -90 25q-8 0 -12 23q-4 27 2 47q61 166 61 368q0 115 -20 242q0 14 -8 14q-25 0 -43 -35q-104 -170 -193 -415q-14 -31 -56 -55.5t-83 -24.5q-49 0 -71.5 40t-22.5 95q0 37 12 117t12 121q0 51 -14 92 q-33 -57 -105 -217q-59 -135 -108 -209q-33 -45 -98 -45q-68 0 -87.5 48t-25.5 118q-3 34 -3 81q0 23 1 50q4 121 4 135q0 27 -5 79t-5 77z" />
<glyph unicode="n" horiz-adv-x="737" d="M80 655q0 78 18 127q18 43 78 43q68 0 84 -53q4 -12 4 -29q0 -20 -11 -62t-11 -65q18 -16 18 -24q70 115 92 139q57 68 129 68q27 0 56 -8q72 -119 94 -297q6 -51 18 -318q7 -29 7 -50q0 -45 -33 -54q-55 -16 -86 -17q-47 0 -54 35q-10 78 -18 254q-6 160 -25 248 q-57 -63 -106 -195q-63 -164 -90 -210t-80 -46q-55 0 -72 64q-8 38 -8 95v24l6 121v-1q0 33 -5 105t-5 106z" />
<glyph unicode="o" horiz-adv-x="577" d="M49 573q0 53 14 105q18 66 68 137q57 80 64 94q31 70 108 70q92 0 159.5 -76t102.5 -203q12 -47 13 -92q0 -160 -154 -321q-37 -39 -115 -39q-55 0 -92 20q-168 96 -168 305zM190 569q1 -78 93 -98q16 -4 30 -4q92 0 93 113q0 96 -72 176q-6 4 -15 4q-33 0 -81 -64.5 t-48 -126.5z" />
<glyph unicode="p" horiz-adv-x="704" d="M27 104q0 125 20 302q19 149 37 299q2 12 -10.5 34.5t-12.5 32.5t5 16q27 23 28.5 89.5t36.5 89.5q46 32 89 32h3q43 0 68 -32q16 -14 18 -56.5t10 -46.5q387 -43 387 -249q0 -11 -1 -23q-18 -168 -193 -234q-152 -41 -303 -82q-23 -109 -23 -182q0 -94 52 -268 q2 -8 26.5 -41t24.5 -53q0 -43 -84 -43q-41 0 -74 12q-49 18 -70 86q-10 31 -22 129q-12 90 -12 188zM236 504q0 -49 20 -58.5t51 -9.5q68 0 130.5 46t72.5 124q1 8 1 15q0 57 -71 73q-43 18 -84 19q-39 -1 -55 -19q-27 -27 -46 -85t-19 -105z" />
<glyph unicode="q" horiz-adv-x="786" d="M16 549q0 57 21 117q43 186 229 258q57 22 110 22h5q92 0 143 -59q27 45 94 45q66 0 82 -37q23 -49 23 -117q0 -74 -46 -275.5t-46 -326.5q0 -145 51 -272q16 -45 72 -45q51 0 67 30q33 74 41 88q35 55 74 56q14 0 27 -6q65 -29 65 -69q0 -11 -51 -132 q-61 -145 -246 -145q-66 0 -124 25.5t-99 86t-47 125.5q0 23 4 98q3 44 3 75q0 16 -1 28q-2 57 -16 94q-6 16 -27 16q-12 0 -48 -10t-52 -10q-12 0 -21 4q-23 14 -71 23.5t-66 23.5q-35 39 -72 80t-49 76q-29 66 -29 133zM207 549q0 -135 106 -197q27 -16 56 -16 q59 0 83.5 55t26.5 139v-4v148q0 45 -43 82q-35 30 -76 30q-10 0 -20 -2q-12 -4 -55 -45q-78 -78 -78 -190z" />
<glyph unicode="r" horiz-adv-x="661" d="M33 850q0 49 36.5 83t77.5 34q53 0 92.5 -50.5t39.5 -117.5q0 -14 -3 -29q53 8 130 86q70 74 126 74q20 0 43 -6q86 -35 87 -68q0 -16 -15 -35q-39 -55 -142.5 -140t-146.5 -149q-14 -23 -17 -73.5t-14.5 -70t-11.5 -46.5q0 -43 33 -86q27 -33 27 -84q0 -76 -47 -121 q-31 -49 -92 -49q-51 0 -82 39q-31 21 -31 78v14q1 31 1 66q0 171 -32 436q-4 33 -33 108q-27 70 -26 107z" />
<glyph unicode="s" horiz-adv-x="706" d="M39 668q0 92 117 178q111 82 217 82q32 -1 57 -13q78 -31 156 -63q84 -41 114 -102q6 -8 7 -23q0 -57 -39 -82q-18 -10 -41 -10q-35 0 -131.5 57.5t-151.5 57.5q-41 0 -80 -23q-18 -12 -18 -35q0 -29 33.5 -65.5t60.5 -46.5q213 -76 324 -179q37 -35 36 -96 q0 -72 -44 -145.5t-143 -123.5t-204 -50q-184 0 -258 153q-6 12 -6 29q0 35 33 64.5t69 31.5h5q26 0 47 -37q27 -47 43 -55q37 -18 84 -18q72 0 126 37.5t54 99.5q0 47 -94 90q-104 45 -207 88q-111 57 -154 145q-12 27 -12 54z" />
<glyph unicode="t" horiz-adv-x="813" d="M12 541q0 43 54 77q27 12 129 37q80 16 106.5 49t32.5 99q4 57 8 112q10 70 31 209q8 82 106 82q59 0 111 -32q16 -16 16 -39q0 -14 -6 -31q-80 -172 -80 -418q195 18 187 19q106 0 106 -60q0 -12 -4 -27q-20 -66 -131 -79q-39 -6 -193 -7q-4 -23 -4 -67q0 -98 27 -408 q19 -237 19 -318q0 -18 -1 -28q-4 -69 -69 -69h-2q-63 0 -86 65q-18 51 -39 414q-18 346 -51 405q-84 -63 -166 -63q-37 0 -66 20q-35 23 -35 58z" />
<glyph unicode="u" horiz-adv-x="751" d="M49 655q0 41 4 78q2 53 7.5 110.5t43.5 84.5q31 12 70 12q104 0 105 -74l-9 -200q-1 -28 -1 -55q0 -85 10 -146q16 -72 32 -143q27 -90 64 -91q12 0 26 9q170 117 170 352q0 135 -67 244q-37 59 -37 106q0 59 82 59q80 0 141 -90q55 -80 60 -168q2 -34 2 -67 q0 -171 -52 -314q-72 -199 -227 -266q-61 -26 -115 -26h-4q-156 0 -237 200q-68 162 -68 385z" />
<glyph unicode="v" horiz-adv-x="880" d="M18 838q0 39 41 63q35 23 82 23q59 0 82 -33q47 -57 99.5 -205.5t97.5 -210.5q68 113 125 285q47 154 94 307q20 66 98 66t142 -56q3 -4 3 -11q0 -9 -5 -24q-8 -31 -9 -36q-6 -10 -26.5 -31t-26.5 -33q-113 -406 -291 -747q-29 -55 -102 -56q-35 0 -53 23 q-98 88 -209 354q-90 162 -135 291q-6 16 -7 31z" />
<glyph unicode="w" horiz-adv-x="1247" d="M51 852q8 86 101 86q48 0 77 -35q43 -53 43 -162q0 -21 -2 -45q-6 -89 -6 -145.5t6 -81.5q12 -61 25 -121q16 -72 47 -112q12 -14 25 -15q20 0 43.5 35t70.5 141q39 86 82 129t78 43q33 0 73 -36.5t99 -161.5q53 -111 111 -148q4 -2 8 -2q20 0 49 49q55 94 55 242v66 q-2 45 -2 65q0 80 17 133q14 45 75 45q98 0 111 -98q10 -104 10 -184q0 -322 -196 -455q-72 -47 -150 -47q-53 0 -106 24q-45 20 -97.5 102.5t-64.5 84.5h-1q-15 0 -67 -86q-63 -98 -106 -123q-68 -39 -146 -39q-84 0 -123 49q-153 200 -153 535q0 108 14 268z" />
<glyph unicode="x" horiz-adv-x="964" d="M23 111q0 68 108.5 176t112.5 176q2 74 -80 214t-82 222q-10 27 23.5 45.5t74.5 18.5q100 0 152 -70q25 -35 61 -150q35 -102 76 -143q31 16 160 129q100 86 159 86q51 0 93 -53q25 -33 24 -64q0 -47 -75.5 -97t-147.5 -97q-78 -59 -78 -125q0 -80 139 -191 q37 -39 99.5 -113.5t99.5 -111.5q23 -23 23 -45q0 -35 -50.5 -59.5t-99.5 -24.5q-20 0 -35 4q-84 31 -192 197q-104 158 -195 178q-3 1 -6 1q-29 0 -63 -54q-59 -88 -68 -97q-37 -57 -117 -57t-108 57q-8 25 -8 48z" />
<glyph unicode="y" horiz-adv-x="708" d="M-129 -135q0 53 43 78q16 10 33 10q35 0 63.5 -27.5t34.5 -62.5q94 74 119 137q18 90 39 182q4 18 4 37q0 49 -41 137t-45 129q-14 107 -41 326l-8 74q0 47 18 67q33 49 98 49q61 0 84 -49q27 -57 27 -156v-14q-1 -35 -1 -63q0 -85 5 -111q4 -14 12 -14q6 0 29 24 q45 100 88 199q57 111 135 156q23 12 58 12q84 0 84 -57q0 -16 -11 -37q-84 -152 -168 -303q-94 -182 -104 -334q-14 -168 -115 -352q-119 -223 -268 -224q-102 0 -137 70t-35 117z" />
<glyph unicode="z" horiz-adv-x="968" d="M37 823q0 51 41 85q35 29 73 29q7 0 13 -1q176 -18 354 -37q178 -31 311 -156q6 -12 6 -27q0 -26 -18 -61q-109 -100 -219 -198q-129 -115 -197 -224q125 -27 246 -28t248 -31q74 -16 74 -68q0 -20 -19 -43q-40 -71 -136 -71h-3q-45 0 -94 14q-84 29 -146 29 q-25 0 -67.5 -6t-71.5 -6q-55 0 -127 18q-207 53 -207 121q0 12 6 24q55 111 203 254q193 186 232 236q-47 57 -90 57q-2 0 -41 -4q-29 -2 -56 0q-16 4 -39 4q-20 0 -61 -4t-62 -4q-39 0 -69 10q-20 0 -46 16.5t-34 39.5q-4 16 -4 32z" />
<glyph unicode="{" horiz-adv-x="911" d="M4 260q0 70 64 166q94 143 102 164q6 14 -29 31.5t-71 33.5q-57 39 -58 82q0 10 4 18.5t45 35.5q31 20 31 53q104 0 88 45q-4 35 -45 103.5t-41 101.5q0 20 10 36q94 180 342 181q101 0 277 -35q16 -4 41 0q33 4 43 4q29 0 49 -16q55 -55 55 -99q0 -33 -32 -55 q-51 -27 -117 -27q-47 0 -142.5 20.5t-142.5 20.5q-74 0 -131 -37q8 -57 90 -155t82 -152q0 -57 -61 -112q-6 -12 -17.5 -85t-38.5 -104q-49 -41 -100 -84q-57 -53 -57 -102q0 -12 4 -25q25 -94 164 -100q113 0 223 2q10 0 10 -12q0 -18 -22.5 -52t-42.5 -47 q-94 -61 -211 -61q-80 0 -176 27q-86 25 -166 145q-23 45 -23 90z" />
<glyph unicode="|" horiz-adv-x="374" d="M55 709q0 152 43 456q0 55 47.5 100.5t104.5 45.5q47 0 86 -34t39 -71q0 -10 -4 -18q-86 -196 -86 -436q0 -88 22.5 -257t22.5 -249q0 -98 -25 -180q-4 -25 -43 -45.5t-78 -20.5q-78 0 -86 76q-43 451 -43 633z" />
<glyph unicode="}" horiz-adv-x="643" d="M31 764q0 53 67 88q57 39 158 76q141 49 168 61q-41 59 -174 92q-139 31 -180 84q-14 16 -15 35q0 8 33 74q18 37 57 37q23 0 91 -27q182 -72 194 -76q111 -51 180 -121q45 -47 29 -108q-16 -66 -82 -105q-35 -20 -133 -53q-90 -31 -129 -59q31 -23 143 -43 q84 -16 84 -66q0 -20 -11 -49t-56 -57q-76 -45 -80 -49q96 -68 125 -97q66 -63 65 -127q0 -96 -108.5 -185t-204.5 -89q-61 0 -115 35q-6 14 -6 39t6 39q25 33 121 59q80 23 80 68q0 10 -4 20q-10 45 -108.5 112.5t-98.5 125.5q0 12 23.5 47t17.5 51q-10 27 -78 84 q-59 49 -59 84z" />
<glyph unicode="~" horiz-adv-x="788" d="M39 983q-2 31 12 51q25 39 51 80q19 27 64 72q119 119 196 119q43 0 91 -29q33 -20 45 -78q16 -72 30 -92q25 -35 43 -35q16 0 56 51q47 57 94 78q10 4 20 4q47 0 47 -51q0 -12 -6 -23q-82 -125 -131 -161q-55 -43 -149 -47q-90 -4 -121 96q-27 90 -62 80 q-59 -20 -108 -94q-41 -63 -100 -64q-23 0 -52 6q-18 6 -20 37z" />
<glyph unicode="&#xa0;" />
<glyph unicode="&#xa1;" />
<glyph unicode="&#xa2;" />
<glyph unicode="&#xa3;" />
<glyph unicode="&#xa4;" />
<glyph unicode="&#xa5;" />
<glyph unicode="&#xa6;" />
<glyph unicode="&#xa7;" />
<glyph unicode="&#xa8;" horiz-adv-x="663" d="M55 1188q0 47 37 85t94 38q104 0 140 -86q12 -25 12 -58q0 -55 -31 -99t-82 -44q-14 0 -30 4q-27 4 -74 29q-66 66 -66 131zM406 1145q0 55 38.5 99t98.5 44q39 0 80 -22.5t41 -77.5q0 -59 -46.5 -110.5t-105.5 -51.5q-27 0 -49 14q-57 37 -57 105z" />
<glyph unicode="&#xa9;" />
<glyph unicode="&#xaa;" />
<glyph unicode="&#xab;" />
<glyph unicode="&#xac;" />
<glyph unicode="&#xad;" horiz-adv-x="735" d="M47 543q-8 51 28 88t87 37q61 0 184 -10.5t184 -10.5q78 0 146 10q39 20 57 -18q2 -12 2 -23q0 -43 -41 -69q-10 -6 -76 -31q-129 -37 -262 -37q-135 0 -272 37q-35 8 -37 27z" />
<glyph unicode="&#xae;" />
<glyph unicode="&#xaf;" />
<glyph unicode="&#xb0;" />
<glyph unicode="&#xb1;" />
<glyph unicode="&#xb2;" />
<glyph unicode="&#xb3;" />
<glyph unicode="&#xb4;" horiz-adv-x="323" d="M51 1051q0 25 17 49q33 47 41 67q74 143 153 144q20 0 43 -24.5t17 -43.5q-31 -82 -56.5 -119t-95.5 -100q-47 -43 -84 -43q-18 0 -27 16q-8 33 -8 54z" />
<glyph unicode="&#xb6;" />
<glyph unicode="&#xb7;" />
<glyph unicode="&#xb8;" />
<glyph unicode="&#xb9;" />
<glyph unicode="&#xba;" />
<glyph unicode="&#xbb;" />
<glyph unicode="&#xbc;" />
<glyph unicode="&#xbd;" />
<glyph unicode="&#xbe;" />
<glyph unicode="&#xbf;" />
<glyph unicode="&#xc0;" />
<glyph unicode="&#xc1;" />
<glyph unicode="&#xc2;" />
<glyph unicode="&#xc3;" />
<glyph unicode="&#xc4;" />
<glyph unicode="&#xc5;" />
<glyph unicode="&#xc6;" />
<glyph unicode="&#xc7;" />
<glyph unicode="&#xc8;" />
<glyph unicode="&#xc9;" />
<glyph unicode="&#xca;" />
<glyph unicode="&#xcb;" />
<glyph unicode="&#xcc;" />
<glyph unicode="&#xcd;" />
<glyph unicode="&#xce;" />
<glyph unicode="&#xcf;" />
<glyph unicode="&#xd0;" />
<glyph unicode="&#xd1;" />
<glyph unicode="&#xd2;" />
<glyph unicode="&#xd3;" />
<glyph unicode="&#xd4;" />
<glyph unicode="&#xd5;" />
<glyph unicode="&#xd6;" />
<glyph unicode="&#xd7;" />
<glyph unicode="&#xd8;" />
<glyph unicode="&#xd9;" />
<glyph unicode="&#xda;" />
<glyph unicode="&#xdb;" />
<glyph unicode="&#xdc;" />
<glyph unicode="&#xdd;" />
<glyph unicode="&#xde;" />
<glyph unicode="&#xdf;" />
<glyph unicode="&#xe0;" />
<glyph unicode="&#xe1;" />
<glyph unicode="&#xe2;" />
<glyph unicode="&#xe3;" />
<glyph unicode="&#xe4;" />
<glyph unicode="&#xe5;" />
<glyph unicode="&#xe6;" />
<glyph unicode="&#xe7;" />
<glyph unicode="&#xe8;" />
<glyph unicode="&#xe9;" />
<glyph unicode="&#xea;" />
<glyph unicode="&#xeb;" />
<glyph unicode="&#xec;" />
<glyph unicode="&#xed;" />
<glyph unicode="&#xee;" />
<glyph unicode="&#xef;" />
<glyph unicode="&#xf0;" />
<glyph unicode="&#xf1;" />
<glyph unicode="&#xf2;" />
<glyph unicode="&#xf3;" />
<glyph unicode="&#xf4;" />
<glyph unicode="&#xf5;" />
<glyph unicode="&#xf6;" />
<glyph unicode="&#xf7;" />
<glyph unicode="&#xf8;" />
<glyph unicode="&#xf9;" />
<glyph unicode="&#xfa;" />
<glyph unicode="&#xfb;" />
<glyph unicode="&#xfc;" />
<glyph unicode="&#xfd;" />
<glyph unicode="&#xfe;" />
<glyph unicode="&#xff;" />
<glyph unicode="&#x152;" />
<glyph unicode="&#x153;" />
<glyph unicode="&#x178;" />
<glyph unicode="&#x2c6;" />
<glyph unicode="&#x2dc;" />
<glyph unicode="&#x2000;" horiz-adv-x="682" />
<glyph unicode="&#x2001;" horiz-adv-x="1365" />
<glyph unicode="&#x2002;" horiz-adv-x="682" />
<glyph unicode="&#x2003;" horiz-adv-x="1365" />
<glyph unicode="&#x2004;" horiz-adv-x="455" />
<glyph unicode="&#x2005;" horiz-adv-x="341" />
<glyph unicode="&#x2006;" horiz-adv-x="227" />
<glyph unicode="&#x2007;" horiz-adv-x="227" />
<glyph unicode="&#x2008;" horiz-adv-x="170" />
<glyph unicode="&#x2009;" horiz-adv-x="273" />
<glyph unicode="&#x200a;" horiz-adv-x="75" />
<glyph unicode="&#x2010;" horiz-adv-x="735" d="M47 543q-8 51 28 88t87 37q61 0 184 -10.5t184 -10.5q78 0 146 10q39 20 57 -18q2 -12 2 -23q0 -43 -41 -69q-10 -6 -76 -31q-129 -37 -262 -37q-135 0 -272 37q-35 8 -37 27z" />
<glyph unicode="&#x2011;" horiz-adv-x="735" d="M47 543q-8 51 28 88t87 37q61 0 184 -10.5t184 -10.5q78 0 146 10q39 20 57 -18q2 -12 2 -23q0 -43 -41 -69q-10 -6 -76 -31q-129 -37 -262 -37q-135 0 -272 37q-35 8 -37 27z" />
<glyph unicode="&#x2012;" horiz-adv-x="735" d="M47 543q-8 51 28 88t87 37q61 0 184 -10.5t184 -10.5q78 0 146 10q39 20 57 -18q2 -12 2 -23q0 -43 -41 -69q-10 -6 -76 -31q-129 -37 -262 -37q-135 0 -272 37q-35 8 -37 27z" />
<glyph unicode="&#x2013;" />
<glyph unicode="&#x2014;" />
<glyph unicode="&#x2018;" horiz-adv-x="438" d="M41 1217q0 41 45 69.5t90 24.5q37 -6 62 -60q37 -88 43 -96q14 -18 55 -133q33 -86 84 -111q18 -10 18 -22q0 -20 -45 -45t-80 -31q-49 -8 -98 74q-35 47 -80 139q-53 106 -82 154q-12 18 -12 37z" />
<glyph unicode="&#x2019;" horiz-adv-x="364" d="M45 938q0 49 39 117q35 55 68 112q72 143 153 144q18 0 42 -24.5t18 -43.5q-72 -193 -205 -313q-45 -43 -82 -43q-20 0 -26.5 17.5t-6.5 33.5z" />
<glyph unicode="&#x201a;" />
<glyph unicode="&#x201c;" horiz-adv-x="782" d="M29 1122q0 33 26.5 61.5t55.5 28.5q12 0 22 -6q55 -31 111 -92q45 -53 92 -108q66 -74 82 -97q41 -55 47 -98q2 -25 -21.5 -43t-54.5 -18q-41 0 -61 30q-152 139 -283 305q-16 14 -16 37zM367 1253q0 27 27.5 42.5t56.5 15.5q57 0 118 -80q50 -72 97 -146 q37 -59 112 -184q4 -8 4 -14q0 -20 -28.5 -38t-61.5 -18q-35 0 -51 21q-41 41 -109 154q-66 106 -116 153q-49 61 -49 94z" />
<glyph unicode="&#x201d;" horiz-adv-x="763" d="M27 1030q-1 64 67 119q51 47 103 96q61 51 114 62q12 4 25 4q57 0 57 -49q0 -16 -12 -33q-33 -45 -123 -108.5t-129 -110.5q-25 -35 -68 -35q-20 0 -27 18.5t-7 36.5zM350 852q0 27 31 66q27 33 51 64.5t96 154.5q53 90 99 135q23 31 67 31q35 0 64 -23q6 -6 6 -20 q0 -16 -6 -23q-119 -250 -297 -393q-41 -41 -72 -41q-39 0 -39 49z" />
<glyph unicode="&#x201e;" />
<glyph unicode="&#x2022;" />
<glyph unicode="&#x2026;" />
<glyph unicode="&#x202f;" horiz-adv-x="273" />
<glyph unicode="&#x2039;" />
<glyph unicode="&#x203a;" />
<glyph unicode="&#x205f;" horiz-adv-x="341" />
<glyph unicode="&#x2122;" />
<glyph unicode="&#xe000;" horiz-adv-x="962" d="M0 0v963h963v-963h-963z" />
</font>
</defs>
</svg>
